Results 1 to 1 of 1
  1. #1
    Hot Member www.desirulez.net
    Join Date
    Feb 2011
    Location
    Bulletproof IP
    Posts
    1,191

    Default Nasha [2013] - HD WEBRip - 1CD - XviD - [Team Telly] - eXclusive



    Nasha *2013*
    "HD WEBRip - 1CD - XviD"
    ..: Team Telly ::..
    ..:: eXclusive - deep1007 ::..




    Media Info

    Code:
    General
    Complete name                            : Nasha [2013] - WEBRip.avi
    Format                                   : AVI
    Format/Info                              : Audio Video Interleave
    File size                                : 700 MiB
    Duration                                 : 1h 53mn
    Overall bit rate                         : 861 Kbps
    
    Video
    ID                                       : 0
    Format                                   : MPEG-4 Visual
    Format profile                           : Advanced Simple@L5
    Format settings, BVOP                    : 1
    Format settings, QPel                    : No
    Format settings, GMC                     : No warppoints
    Format settings, Matrix                  : Default (H.263)
    Muxing mode                              : Packed bitstream
    Codec ID                                 : XVID
    Codec ID/Hint                            : XviD
    Duration                                 : 1h 53mn
    Bit rate                                 : 774 Kbps
    Width                                    : 640 pixels
    Height                                   : 272 pixels
    Display aspect ratio                     : 2.35:1
    Frame rate                               : 29.970 fps
    Color space                              : YUV
    Chroma subsampling                       : 4:2:0
    Bit depth                                : 8 bits
    Scan type                                : Progressive
    Compression mode                         : Lossy
    Bits/(Pixel*Frame)                       : 0.148
    Stream size                              : 629 MiB (90%)
    Writing library                          : XviD 1.2.1 (UTC 2008-12-04)
    
    Audio
    ID                                       : 1
    Format                                   : MPEG Audio
    Format version                           : Version 1
    Format profile                           : Layer 3
    Mode                                     : Joint stereo
    Mode extension                           : MS Stereo
    Codec ID                                 : 55
    Codec ID/Hint                            : MP3
    Duration                                 : 1h 53mn
    Bit rate mode                            : Constant
    Bit rate                                 : 80.0 Kbps
    Channel(s)                               : 2 channels
    Sampling rate                            : 32.0 KHz
    Compression mode                         : Lossy
    Stream size                              : 65.1 MiB (9%)
    Alignment                                : Aligned on interleaves
    Interleave, duration                     : 133 ms (4.00 video frames)
    Interleave, preload duration             : 216 ms
    Title                                    : VTS_01_1 T80 2_0ch 192Kbps DELAY 0ms
    Writing library                          : LAME3.99r
    Encoding settings                        : -m j -V 4 -q 2 -lowpass 13.5 -b 80
    Screenshots




















    All Credits Goes To deep1007 @ Team Telly (Thanks)

    Size: 700.22 MB

    Code:
    http://turbobit.net/528v0yk5n4sy/Nasha2013-HD-WEBRip-1CD-XviD-TT-eXclusive.avi.html
    or
    http://hugefiles.net/a7lizhq5tblu
    
    ..::Sample::..
    http://hugefiles.net/8pa19na60zuh

 

 

Posting Permissions

  • You may not post new threads
  • You may not post replies
  • You may not post attachments
  • You may not edit your posts
  •